ここから本文です

Cueシートについて

kit********さん

2011/6/1117:26:17

Cueシートについて

cueシートの編集を行っているのですが以下のようにしたところタイトルなどが反映されません。
何か問題のある点があれば教えてください。
よろしくお願いします。
(以下cueシート)
TITLE "2006 秋~2007 冬 Hit Song"
FILE "cd.img" BINARY
TRACK 01 AUDIO
TITLE "僕らの街で(ドラマ 「たったひとつの恋」)"
PERFORMER "KAT-TUN"
INDEX 01 00:00:00
TRACK 02 AUDIO
INDEX 00 04:47:14
INDEX 01 04:49:13
TRACK 03 AUDIO
INDEX 00 10:10:68
INDEX 01 10:12:67
TRACK 04 AUDIO
INDEX 00 14:17:23
INDEX 01 14:19:22
TRACK 05 AUDIO
INDEX 00 18:57:42
INDEX 01 18:59:41
TRACK 06 AUDIO
INDEX 00 23:59:13
INDEX 01 24:01:12
TRACK 07 AUDIO
INDEX 00 29:11:04
INDEX 01 29:13:03
TRACK 08 AUDIO
INDEX 00 34:35:15
INDEX 01 34:37:14
TRACK 09 AUDIO
INDEX 00 39:36:37
INDEX 01 39:38:36
TRACK 10 AUDIO
INDEX 00 44:12:29
INDEX 01 44:14:28
TRACK 11 AUDIO
INDEX 00 48:42:25
INDEX 01 48:44:24
TRACK 12 AUDIO
INDEX 00 52:28:19
INDEX 01 52:30:18
TRACK 13 AUDIO
INDEX 00 56:48:26
INDEX 01 56:50:25
TRACK 14 AUDIO
INDEX 00 60:31:36
INDEX 01 60:33:35
TRACK 15 AUDIO
INDEX 00 66:00:72
INDEX 01 66:02:71
以上

閲覧数:
380
回答数:
1

違反報告

ベストアンサーに選ばれた回答

lum********さん

2011/6/1119:36:34

内容自体に変なところはないと思いますが。トラック2以降のタイトルが無い以外に。

ただこのcue何のために編集するのでしょう?
イメージファイルだと直接プレーヤーで再生することは出来ませんし、仮想CDとして使うとしても、CD-TEXTの読み込みに対応したプレーヤーでないとcueに書いてもタイトルを読んではくれません。

一度仮想ドライブにマウントして、EACあたりでfreedbから曲情報を読み込んでから再度wav+cueかflac+cueにイメージ化してしまった方が使いやすいかと。
wav+cueは仮想ドライブに仮想CDとしてマウントできますし。

この回答は投票によってベストアンサーに選ばれました!

みんなで作る知恵袋 悩みや疑問、なんでも気軽にきいちゃおう!

Q&Aをキーワードで検索:

Yahoo! JAPANは、回答に記載された内容の信ぴょう性、正確性を保証しておりません。
お客様自身の責任と判断で、ご利用ください。
本文はここまでです このページの先頭へ

「追加する」ボタンを押してください。

閉じる

※知恵コレクションに追加された質問は選択されたID/ニックネームのMy知恵袋で確認できます。

不適切な投稿でないことを報告しました。

閉じる