ここから本文です

CDから作成したcueシートとイメージから作成したcueシートがずれてしまいます。 ...

sof********さん

2019/4/2017:27:28

CDから作成したcueシートとイメージから作成したcueシートがずれてしまいます。

Windows 10(64ビット)でExact Audio Copy 1.3を使用しています。

先日、発売されたばかりの新品CDのイメージファイル(wav+cue)を作成しました。

その後、作成したイメージファイルを仮想ドライブにマウントし、wav+cueを作成しました。

最初にCDから作成したcueシートは
TRACK 01 AUDIO
INDEX 01 00:00:00
TRACK 02 AUDIO
INDEX 00 03:57:63
INDEX 01 03:59:50
TRACK 03 AUDIO
INDEX 00 08:04:45
INDEX 01 08:06:31
TRACK 04 AUDIO
INDEX 00 09:37:41
INDEX 01 09:39:65
TRACK 05 AUDIO
INDEX 00 13:37:53
INDEX 01 13:39:40

なのですが、マウントしたイメージから作成したcueシートは
TRACK 01 AUDIO
INDEX 01 00:00:00
TRACK 02 AUDIO
INDEX 00 03:57:64
INDEX 01 03:59:50
TRACK 03 AUDIO
INDEX 00 08:04:46
INDEX 01 08:06:31
TRACK 04 AUDIO
INDEX 00 09:37:42
INDEX 01 09:39:65
TRACK 05 AUDIO
INDEX 00 13:37:54
INDEX 01 13:39:40

となっており、2曲目からのINDEX 00が1ずれています。

別のPCでも試してみましたが、同じ結果になりました。

CDから作成したWAVファイルとwav+cueから作成したWAVファイルを音くらべというフリーソフトで比較してみましたが、結果は一致しましたので、問題はないかと思います。

ただ、今までcueシートがずれるという事はありませんでしたので、気になります。

詳しい方、宜しくお願いします。

閲覧数:
39
回答数:
1

違反報告

ベストアンサーに選ばれた回答

pon********さん

2019/4/2308:59:45

プレギャップの位置が1フレームずれてますね。でも曲の開始位置は合ってますよね。

こういう現象にお目にかかったのは初めてでよくわかりませんが、仮想ドライブソフトによっては、プレギャップをまったく認識しないものもあるので、仮想ドライブソフトを替えてみると、何か掴めるかもしれません。何をお使いですか?

あ、ところで、なんでこんなことするんですか??

  • 質問者

    sof********さん

    2019/4/2519:08:07

    回答ありがとうございます。

    仮想ドライブはDAEMON Tools Liteの5.0.1を使用しています。

    購入したCDは、いつもイメージファイルにしてHDDに保存しています。

    理論上はマウントしたイメージからも同様のcueシートが出来るはずですので、精神衛生上というか、ただの自己満足のためにサブマシンで確認しています。

    今まで1800枚くらいのCDをイメージ化していますが、cueシートがずれる事はありませんでしたので、同じCDを買いなおすしかないかなと思い、質問させて頂きました。

    ちなみにずれたcueシートから再びイメージを作成すると、また1ずれていました。

返信を取り消しますが
よろしいですか?

  • 取り消す
  • キャンセル

質問した人からのコメント

2019/4/25 19:16:15

回答ありがとうございました。

昨日、購入した別のCDにはズレは発生しませんでしたので、やはりCDの問題かと思います。

取り敢えず、中古で同じCDを購入して、再確認してみます。

みんなで作る知恵袋 悩みや疑問、なんでも気軽にきいちゃおう!

Q&Aをキーワードで検索:

Yahoo! JAPANは、回答に記載された内容の信ぴょう性、正確性を保証しておりません。
お客様自身の責任と判断で、ご利用ください。
本文はここまでです このページの先頭へ

「追加する」ボタンを押してください。

閉じる

※知恵コレクションに追加された質問は選択されたID/ニックネームのMy知恵袋で確認できます。

不適切な投稿でないことを報告しました。

閉じる