ここから本文です

dvd flickでエンコード中にエラーが起きて先に進めません。audio encordのところで...

hev********さん

2011/7/2718:36:54

dvd flickでエンコード中にエラーが起きて先に進めません。audio encordのところでエラーになるので
解決策がありましたら教えてください。

以下がエラーログです。




*** dvdflick.log

16:04:16: Threadcount: 4
16:04:16: Encoding video...
16:04:16: Title 0, source 0
16:04:16: Source : D:\CPRM Decrypter\WCW NWO 4Life1\VR_MOVIE.mpg
16:04:16: Properties : 720x480, 1.5:1, 29.97 FPS, mpeg2video, 6889.84 seconds
16:04:16: Target BitRate : 5080 Kbit\s
16:04:16: Re-encoding
16:04:16: -i "D:\CPRM Decrypter\WCW NWO 4Life1\VR_MOVIE.mpg" -vcodec mpeg2video -s 608x480 -padleft 56 -padright 56 -r 29.97 -g 14 -bufsize 1835008 -packetsize 2048 -muxrate 10080000 -aspect 16:9 -minrate 5030k -maxrate 5030k -b 5030k -preme 1 -precmp 2 -subcmp 8 -mbcmp 8 -cmp 1 -sws_flags lanczos+accurate_rnd -mbd 2 -sc_threshold -3000 -dc 8 -an -threads 4 -fflags +genpts -f mpeg2video -shortest -map 0:0 "D:\nwo copy\0.0.m2v"
17:27:28: Combining video sources...
17:27:28: Concatenating video...
17:27:28: Encoding audio...
17:27:28: Title 0, track 0, source 0 of 0
17:27:28: Source : D:\CPRM Decrypter\WCW NWO 4Life1\VR_MOVIE.mpg
17:27:28: Properties : 2 channels, 48000 Hz, ac3, 6889.84 seconds
17:27:28: -i "D:\CPRM Decrypter\WCW NWO 4Life1\VR_MOVIE.mpg" -i "D:\nwo copy\0.0.m2v" -map 0:0:1:0 -acodec copy -threads 4 -async 0 -shortest "D:\nwo copy\0.0.0.ac3"
17:27:29: -1 from EncodeAudio: Audio encoding failed.

*** ffmpeg_audio_title0_track0_source0.txt
s from container frame rate: 59.94 (60000/1001) -> 29.97 (30000/1001)
Input #1, mpegvideo, from 'D:\nwo copy\0.0.m2v':
Duration: 01:54:49.77, bitrate: 5030 kb/s
Stream #1.0: Video: mpeg2video, yuv420p, 720x480 [PAR 32:27 DAR 16:9], 5030 kb/s, 29.970 tbr, 1200k tbn, 59.940 tbc
Output #0, ac3, to 'D:\nwo copy\0.0.0.ac3':
Stream #0.0: Audio: 0x0000, 48000 Hz, 2 channels, s16, 64 kb/s
Codec type mismatch for mapp

閲覧数:
12,008
回答数:
1

違反報告

ベストアンサーに選ばれた回答

rat********さん

編集あり2011/7/2719:43:13

過去に同じ質問に回答してます


http://detail.chiebukuro.yahoo.co.jp/qa/question_detail/q1461775544

こちらの日本語パッチ使えば改善するかも分かりません

ファイル名に全角文字が使われえていてもaudio encord中にエラーで停止します


地デジ録画のファイルのようですが解除ができていてPCで再生できるのであれば問題なく書き込めるはずですが

なお
Freemake Video Converter
http://www.freemake.com/jp/free_video_converter/


ならファイル名などの規制などなく書き込めます

質問した人からのコメント

2011/7/28 16:25:03

成功 全角英数字を半角にしただけで無事解決できました。丁寧な回答でどうもありがとうございました。

あわせて知りたい

みんなで作る知恵袋 悩みや疑問、なんでも気軽にきいちゃおう!

Q&Aをキーワードで検索:

Yahoo! JAPANは、回答に記載された内容の信ぴょう性、正確性を保証しておりません。
お客様自身の責任と判断で、ご利用ください。
本文はここまでです このページの先頭へ

「追加する」ボタンを押してください。

閉じる

※知恵コレクションに追加された質問は選択されたID/ニックネームのMy知恵袋で確認できます。

不適切な投稿でないことを報告しました。

閉じる